Jump to content

Shadow Knight

Members
  • Content Count

    49
  • Joined

  • Last visited

6 Followers

Recent Profile Visitors

983 profile views
  1. https://dood.so/d/kl1n4pkhcpaqghleae2r9o52istvmasi
  2. What's New Auto-Delete, Widgets, Expiring Invite Links, and More • Set messages to auto-delete for everyone 24 hours or 7 days after sending. • Create invite links that work for a limited time or a limited number of uses. • Access your chats quickly with Home Screen Widgets. • Convert groups into Broadcast Groups with unlimited members. • Keep the original sending date when moving chat history from other apps. View the complete list of changes in-app or on our blog. Download
  3. Kanna Veesi (From "Kadhal Ondru Kanden") (2020) - FLAC[16bit - 44.1kHz - 1411kbps] General Complete name : Kanna Veesi (Kadhal Ondru Kanden) (2020) - [16bit - 44.1kHz - 1411kbps].flac Format : FLAC Format/Info : Free Lossless Audio Codec File size : 7.51 MiB Duration : 1 min 38 s Overall bit rate mode : Variable Overall bit rate : 638 kb/s Album : Kanna Veesi (Kadhal Ondru Kanden) Album/Performer : Archana Venkat Part : 1 Track name : Kanna Veesi (Kadhal Ondru Kanden) Track name/Position : 1 Performer : Archana Venkat Description : QZFYY2166303 Recorded date : 2021-01-21 Writing application : Lavf56.30.100 Cover : Yes Cover type : Cover (front) Cover MIME : image/jpeg publisher : 2702967 Records DK Audio Format : FLAC Format/Info : Free Lossless Audio Codec Duration : 1 min 38 s Bit rate mode : Variable Bit rate : 624 kb/s Channel(s) : 2 channels Channel positions : Front: L R Sampling rate : 44.1 kHz Bit depth : 16 bits Stream size : 7.34 MiB (98%) Writing library : Lavf56.30.100 Spek Kanna Veesi (From "Kadhal Ondru Kanden") (2020) - [16bit - 44.1kHz - 1411kbps].flac
  4. Vaaranam Aayiram (2008) (Original Motion Picture Soundtrack) + (Instrumental Version) FLAC[16bit - 44.1kHz - 1411kbps] General Complete name : Vaaranam Aayiram (Original Motion Picture Soundtrack) FLAC[16bit - 44.1kHz - 1411kbps]\1 - Harris Jayaraj, Krish, Benny Dayal, Shruti Haasan - Adiyae Kolluthey.flac Format : FLAC Format/Info : Free Lossless Audio Codec File size : 35.0 MiB Duration : 5 min 15 s Overall bit rate mode : Variable Overall bit rate : 931 kb/s Album : Vaaranam Aayiram (Original Motion Picture Soundtrack) Album/Performer : Harris Jayaraj Part : 1 Track name : Adiyae Kolluthey Track name/Position : 1 Performer : "Harris Jayaraj / Krish / Benny Dayal / Shruti Haasan" Description : INS170816330 Recorded date : 2008-10-02 Writing application : Lavf56.30.100 Cover : Yes Cover type : Cover (front) Cover MIME : image/jpeg publisher : (P) 2008 Sony Music Entertainment India Pvt. Ltd. Audio Format : FLAC Format/Info : Free Lossless Audio Codec Duration : 5 min 15 s Bit rate mode : Variable Bit rate : 921 kb/s Channel(s) : 2 channels Channel positions : Front: L R Sampling rate : 44.1 kHz Bit depth : 16 bits Stream size : 34.7 MiB (99%) Writing library : Lavf56.30.100 Instrumental Version General Complete name : Vaaranam Aayiram (Original Motion Picture Soundtrack) (Instrumental Version) FLAC[16bit - 44.1kHz - 1411kbps]\1 - Harris Jayaraj, Shyam Benjamin - Mundhinam (Instrumental).flac Format : FLAC Format/Info : Free Lossless Audio Codec File size : 37.8 MiB Duration : 5 min 28 s Overall bit rate mode : Variable Overall bit rate : 967 kb/s Album : Vaaranam Aayiram (Original Motion Picture Soundtrack) (Instrumental Version) Album/Performer : Harris Jayaraj Part : 1 Track name : Mundhinam (Instrumental) Track name/Position : 1 Performer : "Harris Jayaraj / Shyam Benjamin" Description : INS171000480 Recorded date : 2011-04-25 Writing application : Lavf56.30.100 Cover : Yes Cover type : Cover (front) Cover MIME : image/jpeg publisher : (P) 2011 Sony Music Entertainment India Pvt. Ltd. Audio Format : FLAC Format/Info : Free Lossless Audio Codec Duration : 5 min 28 s Bit rate mode : Variable Bit rate : 958 kb/s Channel(s) : 2 channels Channel positions : Front: L R Sampling rate : 44.1 kHz Bit depth : 16 bits Stream size : 37.5 MiB (99%) Writing library : Lavf56.30.100 Vaaranam Aayiram (2008) (Original Motion Picture Soundtrack) FLAC[16bit - 44.1kHz - 1411kbps].zip Vaaranam Aayiram (2008) (Original Motion Picture Soundtrack) (Instrumental Version) FLAC[16bit - 44.1kHz - 1411kbps].zip
  5. Thadam (2019) (Original Motion Picture Soundtrack) FLAC[16bit - 44.1kHz - 1411kbps] General Complete name : Thadam (2019) (Original Motion Picture Soundtrack) FLAC[16bit - 44.1kHz - 1411kbps]\1 - Sid Sriram, Padmalatha - Inayae.flac Format : FLAC Format/Info : Free Lossless Audio Codec File size : 24.2 MiB Duration : 3 min 34 s Overall bit rate mode : Variable Overall bit rate : 947 kb/s Album : Thadam (Original Motion Picture Soundtrack) Album/Performer : Arun Raj Part : 1 Track name : Inayae Track name/Position : 1 Performer : "Sid Sriram / Padmalatha" Description : INH101800546 Recorded date : 2019-02-06 Writing application : Lavf56.30.100 Cover : Yes Cover type : Cover (front) Cover MIME : image/jpeg publisher : (C) 2019 Saregama India Ltd. Audio Format : FLAC Format/Info : Free Lossless Audio Codec Duration : 3 min 34 s Bit rate mode : Variable Bit rate : 925 kb/s Channel(s) : 2 channels Channel positions : Front: L R Sampling rate : 44.1 kHz Bit depth : 16 bits Stream size : 23.6 MiB (98%) Writing library : Lavf56.30.100 Thadam (2019) (Original Motion Picture Soundtrack) FLAC[16bit - 44.1kHz - 1411kbps].zip
  6. Virgin Bhasskar (2021) Tamil - Complete S01,S02 - 480p HD AVC UNTOUCHED - AAC - 1.8GB Virgin Bhasskar (2020) Tamil S01 E[01-11(muxed)] - 480p HD AVC UNTOUCHED - AAC - x264 - 900MB.mkv Virgin Bhasskar (2021) Tamil S02 E[01-12(muxed)] - 480p HD AVC UNTOUCHED - AAC - x264 - 900MB.mkv
  7. Tamil Top 100 (2020) MP3 [CBR - 320 Kbps] SONGS LIST www.TamilBlasters.nl - Tamil Top 100 (2020) MP3 [CBR - 320 Kbps].zip
  8. Satyameva Jayate (2019) [1080p - 720p - 480p - HD AVC UNTOUCHED - 1.5GB - 1GB - 400MB] Satyameva Jayate (2019) Tamil 1080p HD AVC UNTOUCHED - 1.5GB Satyameva Jayate (2019) Tamil 720p HD AVC UNTOUCHED - 1GB Satyameva Jayate (2019) Tamil 480p HD AVC UNTOUCHED - 400MB
  9. Natpadhigaram 79 (2016) 1080p HD AVC UNTOUCHED - 1.7GB https://1fichier.com/?46ep0i53ber18d4det5v
  10. Kuruthikalam (2021) Tamil - S01(E01-13) - 480p HD AVC - 2.2GB Kuruthikalam (2021) Tamil - S01(E01-13) - 480p HD AVC - 2.2GB.torrent Magnet Link Seedback after download
×
×
  • Create New...